Haseena Parkar 2017 720p WEB-HD x264 AAC [Moviezworldz]

  • Category Movies
  • Type Bollywood
  • Language Hindi
  • Total size 859.8 MB
  • Uploaded By moviezworldz
  • Downloads 3954
  • Last checked 3 hours ago
  • Date uploaded 4 days ago
  • Seeders 60
  • Leechers 13

Haseena Parkar

DramaCrime

Follows the equally notorious sister of a notorious gangster

Infohash : 8E927853EAE9B1DB0AA1FEE943E2EA5EF87FF81B




General
Format                      : Matroska
Format version              : Version 4 / Version 2
File size                   : 860 MiB
Duration                    : 1 h 57 min
Overall bit rate            : 1 022 kb/s

Video
ID                          : 1
Format                      : AVC
Format/Info                 : Advanced Video Codec
Format profile              : [email protected]
Format settings             : CABAC / 4 Ref Frames
Format settings, CABAC      : Yes
Format settings, ReFrames   : 4 frames
Codec ID                    : V_MPEG4/ISO/AVC
Duration                    : 1 h 57 min
Bit rate                    : 900 kb/s
Width                       : 1 280 pixels
Height                      : 544 pixels
Display aspect ratio        : 2.35:1
Frame rate mode             : Constant
Frame rate                  : 24.926 FPS
Color space                 : YUV
Chroma subsampling          : 4:2:0
Bit depth                   : 8 bits
Scan type                   : Progressive
Bits/(Pixel*Frame)          : 0.052
Stream size                 : 751 MiB (87%)
Writing library             : x264 core 148 r2708 86b7198
Default                     : Yes
Forced                      : No

Audio
ID                          : 2
Format                      : AAC
Format/Info                 : Advanced Audio Codec
Format profile              : LC
Codec ID                    : A_AAC-2
Duration                    : 1 h 57 min
Bit rate                    : 128 kb/s
Channel(s)                  : 2 channels
Channel positions           : Front: L R
Sampling rate               : 44.1 kHz
Frame rate                  : 43.066 FPS (1024 SPF)
Compression mode            : Lossy
Stream size                 : 107 MiB (12%)
Language                    : Hindi
Default                     : Yes
Forced                      : No















Files:

Haseena Parkar 2017 720p WEB-HD x264 AAC
  • Haseena Parkar 2017 720p WEB-HD x264 AAC.mkv (859.8 MB)

There are currently no comments. Feel free to leave one :)

Code:

  • http://ipv4.tracker.harry.lu/announce
  • http://ipv4.tracker.harry.lu:80/announce
  • http://tracker.electro-torrent.pl/announce
  • http://tracker.electro-torrent.pl:80/announce
  • http://retracker.mgts.by:80/announce
  • http://pt.lax.mx:80/announce
  • http://tracker.torrentyorg.pl:80/announce
  • http://163.172.180.68/announce
  • http://82.209.230.66/announce
  • http://107.174.238.55:80/announce
  • http://t.nyaatracker.com/announce
  • http://t.nyaatracker.com:80/announce
  • udp://tracker.coppersurfer.tk:6969/announce
  • udp://tracker.coppersurfer.tk:80/announce
  • udp://tracker.coppersurfer.tk:6969