Tumhari Sulu 2017 720p Esub HD Hindi GOPISAHI

  • Category Movies
  • Type Bollywood
  • Language Hindi
  • Total size 557.5 MB
  • Uploaded By PENDUDESI
  • Downloads 1105
  • Last checked 36 minutes ago
  • Date uploaded 3 days ago
  • Seeders 10
  • Leechers 0

Tumhari Sulu

DramaComedy

Tumhari Sulu is an upcoming Indian Bollywood comedy-drama film, directed by Suresh Triveni and produced by Bhushan Kumar under his banner of T-Series. Balan essays the role of a late night Radio jockey in Mumbai.

Infohash : C61B5880C401A1D211393B6D7542CD225E7742B6


Format : Matroska
Format version : Version 4 / Version 2
File size : 558 MiB
Duration : 2 h 14 min
Overall bit rate : 580 kb/s
Movie name : Tumhari Sulu 2017 GOPISAHI

Video
Format : AVC
Codec ID : V_MPEG4/ISO/AVC
Duration : 2 h 14 min
Bit rate : 500 kb/s
Width : 1 280 pixels
Height : 720 pixels
Display aspect ratio : 16:9
Frame rate mode : Constant
Frame rate : 25.000 FPS
Stream size : 481 MiB (86%)
Writing library : x264
Language : Hindi

Audio
Format : AAC
Duration : 2 h 14 min
Bit rate : 77.3 kb/s
Channel(s) : 6 channels
Channel positions : Front: L C R, Side: L R, LFE
Sampling rate : 44.1 kHz
Frame rate : 43.066 FPS (1024 SPF)
Stream size : 74.4 MiB (13%)
Language : Hindi

Text
Language : English


Files:

  • Tumhari Sulu 2017 720p Esub HD Hindi GOPISAHI.mkv (557.5 MB)

There are currently no comments. Feel free to leave one :)

Code:

  • http://ipv4.tracker.harry.lu/announce
  • http://ipv4.tracker.harry.lu:80/announce
  • http://163.172.180.68:80/announce
  • http://t.nyaatracker.com/announce
  • http://tracker.devil-torrents.pl:80/announce
  • http://tracker.devil-torrents.pl/announce
  • http://open.kickasstracker.com/announce
  • http://163.172.180.68/announce
  • http://t.nyaatracker.com:80/announce
  • http://retracker.mgts.by:80/announce
  • http://45.33.11.224/announce
  • http://tracker.torrentyorg.pl:80/announce
  • http://pt.lax.mx:80/announce
  • udp://tracker.coppersurfer.tk:6969/announce
  • udp://tracker.pirateparty.gr:6969/announce